osu file format v14

[General]
AudioFilename: audio.mp3
AudioLeadIn: 1500
PreviewTime: 52220
Countdown: 1
SampleSet: Normal
StackLeniency: 0.7
Mode: 1
LetterboxInBreaks: 0
WidescreenStoryboard: 0

[Editor]
Bookmarks: 21247,42004,73139,93896,125031,145788
DistanceSpacing: 1
BeatDivisor: 4
GridSize: 32
TimelineZoom: 0.8999999

[Metadata]
Title:Mischievous of Alice
TitleUnicode:Mischievous of Alice
Artist:Yousei Teikoku
ArtistUnicode:妖精帝國
Creator:Delis
Version:Nardo's Muzukashii
Source:クイーンズゲイト スパイラルカオス
Tags:Hades:The other world Queen's Gate Spiral Chaos Nardoxyribonucleic
BeatmapID:1516753
BeatmapSetID:623960

[Difficulty]
HPDrainRate:5
CircleSize:5
OverallDifficulty:5
ApproachRate:5
SliderMultiplier:1.4
SliderTickRate:1

[Events]
//Background and Video events
0,0,"png.jpg",0,-55
//Break Periods
//Storyboard Layer 0 (Background)
//Storyboard Layer 1 (Fail)
//Storyboard Layer 2 (Pass)
//Storyboard Layer 3 (Foreground)
//Storyboard Sound Samples

[TimingPoints]
491,324.324324324324,4,1,0,70,1,0
10869,-100,4,1,0,80,0,0
31626,-100,4,1,0,85,0,0
52382,-100,4,1,0,90,0,1
62761,-100,4,1,0,80,0,0
83518,-100,4,1,0,85,0,0
104274,-100,4,1,0,90,0,1
114653,-100,4,1,0,80,0,0
135409,-100,4,1,0,85,0,0
156166,-100,4,1,0,90,0,1
166220,-100,4,1,0,90,0,0
166382,-100,4,1,0,70,0,0
167842,-100,4,1,0,80,0,0
178220,-100,4,1,0,90,0,1
190382,-100,4,1,0,90,0,0
190545,-100,4,1,0,70,0,0
191842,-100,4,1,0,60,0,0
193139,-100,4,1,0,50,0,0
194436,-100,4,1,0,40,0,0
195734,-100,4,1,0,30,0,0
197031,-100,4,1,0,20,0,0
198328,-100,4,1,0,10,0,0

[Colours]
Combo1 : 163,103,67
Combo2 : 55,147,133
Combo3 : 123,95,177
Combo4 : 118,151,115
Combo5 : 167,88,106

[HitObjects]
256,192,491,5,4,0:0:0:0:
256,192,653,1,4,0:0:0:0:
256,192,1788,1,4,0:0:0:0:
256,192,1950,1,4,0:0:0:0:
256,192,3085,1,4,0:0:0:0:
256,192,3247,1,4,0:0:0:0:
256,192,4220,1,8,0:0:0:0:
256,192,4545,1,8,0:0:0:0:
256,192,4707,1,0,0:0:0:0:
256,192,4869,1,8,0:0:0:0:
256,192,5193,1,8,0:0:0:0:
256,192,5355,1,0,0:0:0:0:
256,192,5436,1,0,0:0:0:0:
256,192,5518,1,0,0:0:0:0:
256,192,5680,1,4,0:0:0:0:
256,192,5842,1,4,0:0:0:0:
256,192,6977,1,4,0:0:0:0:
256,192,7139,1,4,0:0:0:0:
256,192,8274,1,4,0:0:0:0:
256,192,8436,1,4,0:0:0:0:
256,192,9409,1,8,0:0:0:0:
256,192,9734,1,8,0:0:0:0:
256,192,9896,1,0,0:0:0:0:
256,192,10058,1,8,0:0:0:0:
256,192,10382,1,8,0:0:0:0:
256,192,10545,1,8,0:0:0:0:
256,192,10626,1,8,0:0:0:0:
256,192,10707,1,8,0:0:0:0:
256,192,10869,1,4,0:0:0:0:
256,192,11193,1,8,0:0:0:0:
256,192,11355,1,0,0:0:0:0:
256,192,11436,1,0,0:0:0:0:
256,192,11518,1,0,0:0:0:0:
256,192,11680,1,0,0:0:0:0:
256,192,11842,1,8,0:0:0:0:
256,192,12166,1,8,0:0:0:0:
256,192,12490,1,8,0:0:0:0:
256,192,12653,1,8,0:0:0:0:
256,192,12815,1,0,0:0:0:0:
256,192,12977,1,0,0:0:0:0:
256,192,13139,1,8,0:0:0:0:
256,192,13463,1,4,0:0:0:0:
256,192,13788,1,8,0:0:0:0:
256,192,13950,1,0,0:0:0:0:
256,192,14031,1,0,0:0:0:0:
256,192,14112,1,0,0:0:0:0:
256,192,14274,1,0,0:0:0:0:
256,192,14436,1,8,0:0:0:0:
256,192,14761,1,8,0:0:0:0:
256,192,15085,1,8,0:0:0:0:
256,192,15247,1,0,0:0:0:0:
256,192,15409,1,8,0:0:0:0:
256,192,15572,1,0,0:0:0:0:
256,192,15734,1,8,0:0:0:0:
256,192,15815,1,8,0:0:0:0:
256,192,15896,1,8,0:0:0:0:
256,192,16058,1,4,0:0:0:0:
256,192,16382,1,8,0:0:0:0:
256,192,16545,1,0,0:0:0:0:
256,192,16626,1,0,0:0:0:0:
256,192,16707,1,0,0:0:0:0:
256,192,16869,1,0,0:0:0:0:
256,192,17031,1,8,0:0:0:0:
256,192,17355,1,8,0:0:0:0:
256,192,17680,1,8,0:0:0:0:
256,192,17842,1,8,0:0:0:0:
256,192,18004,1,0,0:0:0:0:
256,192,18166,1,0,0:0:0:0:
256,192,18328,1,8,0:0:0:0:
256,192,18653,1,4,0:0:0:0:
256,192,18977,1,8,0:0:0:0:
256,192,19139,1,0,0:0:0:0:
256,192,19220,1,0,0:0:0:0:
256,192,19301,1,0,0:0:0:0:
256,192,19463,1,0,0:0:0:0:
256,192,19626,1,8,0:0:0:0:
256,192,19950,1,8,0:0:0:0:
256,192,20112,1,0,0:0:0:0:
256,192,20274,1,8,0:0:0:0:
256,192,20436,1,8,0:0:0:0:
256,192,20599,1,0,0:0:0:0:
256,192,20680,1,0,0:0:0:0:
256,192,20761,1,0,0:0:0:0:
256,192,20923,1,8,0:0:0:0:
256,192,21247,1,4,0:0:0:0:
256,192,21572,1,8,0:0:0:0:
256,192,21896,1,0,0:0:0:0:
256,192,22220,1,8,0:0:0:0:
256,192,22382,1,8,0:0:0:0:
256,192,22545,1,0,0:0:0:0:
256,192,22869,1,8,0:0:0:0:
256,192,23193,1,0,0:0:0:0:
256,192,23355,1,0,0:0:0:0:
256,192,23518,1,8,0:0:0:0:
256,192,23680,1,0,0:0:0:0:
256,192,23842,1,12,0:0:0:0:
256,192,24166,1,0,0:0:0:0:
256,192,24490,1,8,0:0:0:0:
256,192,24815,1,8,0:0:0:0:
256,192,24977,1,8,0:0:0:0:
256,192,25139,1,0,0:0:0:0:
256,192,25463,1,0,0:0:0:0:
256,192,25788,1,8,0:0:0:0:
256,192,25950,1,0,0:0:0:0:
256,192,26112,1,8,0:0:0:0:
256,192,26274,1,8,0:0:0:0:
256,192,26436,1,4,0:0:0:0:
256,192,26761,1,8,0:0:0:0:
256,192,27085,1,0,0:0:0:0:
256,192,27409,1,8,0:0:0:0:
256,192,27572,1,0,0:0:0:0:
256,192,27734,1,8,0:0:0:0:
256,192,28058,1,8,0:0:0:0:
256,192,28382,1,0,0:0:0:0:
256,192,28545,1,0,0:0:0:0:
256,192,28707,1,8,0:0:0:0:
256,192,28869,1,8,0:0:0:0:
256,192,29031,1,4,0:0:0:0:
256,192,29355,1,8,0:0:0:0:
256,192,29680,1,0,0:0:0:0:
256,192,30004,1,8,0:0:0:0:
256,192,30166,1,0,0:0:0:0:
256,192,30328,1,8,0:0:0:0:
256,192,30653,1,8,0:0:0:0:
256,192,30815,1,0,0:0:0:0:
256,192,30896,1,0,0:0:0:0:
256,192,30977,1,0,0:0:0:0:
256,192,31139,1,0,0:0:0:0:
256,192,31301,1,8,0:0:0:0:
256,192,31382,1,8,0:0:0:0:
256,192,31463,1,8,0:0:0:0:
256,192,31626,1,4,0:0:0:0:
256,192,31950,1,8,0:0:0:0:
256,192,32112,1,0,0:0:0:0:
256,192,32274,1,8,0:0:0:0:
256,192,32599,1,0,0:0:0:0:
256,192,32761,1,8,0:0:0:0:
256,192,32923,1,0,0:0:0:0:
256,192,33085,1,0,0:0:0:0:
256,192,33247,1,8,0:0:0:0:
256,192,33409,1,8,0:0:0:0:
256,192,33734,1,0,0:0:0:0:
256,192,33896,1,8,0:0:0:0:
256,192,34058,1,8,0:0:0:0:
256,192,34220,1,4,0:0:0:0:
256,192,34545,1,8,0:0:0:0:
256,192,34707,1,0,0:0:0:0:
256,192,34869,1,0,0:0:0:0:
256,192,34950,1,0,0:0:0:0:
256,192,35031,1,0,0:0:0:0:
256,192,35193,1,8,0:0:0:0:
256,192,35355,1,0,0:0:0:0:
256,192,35518,1,4,0:0:0:0:
256,192,35842,1,8,0:0:0:0:
256,192,36004,1,8,0:0:0:0:
256,192,36166,1,0,0:0:0:0:
256,192,36328,1,0,0:0:0:0:
256,192,36490,1,8,0:0:0:0:
256,192,36572,1,8,0:0:0:0:
256,192,36653,1,8,0:0:0:0:
256,192,36815,1,4,0:0:0:0:
256,192,37139,1,8,0:0:0:0:
256,192,37301,1,0,0:0:0:0:
256,192,37463,1,8,0:0:0:0:
256,192,37788,1,0,0:0:0:0:
256,192,37950,1,8,0:0:0:0:
256,192,38112,1,0,0:0:0:0:
256,192,38274,1,0,0:0:0:0:
256,192,38436,1,8,0:0:0:0:
256,192,38599,1,8,0:0:0:0:
256,192,38923,1,0,0:0:0:0:
256,192,39085,1,8,0:0:0:0:
256,192,39247,1,8,0:0:0:0:
256,192,39409,1,4,0:0:0:0:
256,192,39734,1,8,0:0:0:0:
256,192,39896,1,0,0:0:0:0:
256,192,40058,1,8,0:0:0:0:
256,192,40139,1,8,0:0:0:0:
256,192,40220,1,8,0:0:0:0:
256,192,40382,1,8,0:0:0:0:
256,192,40545,1,0,0:0:0:0:
256,192,40626,1,0,0:0:0:0:
256,192,40707,1,0,0:0:0:0:
256,192,40869,1,0,0:0:0:0:
256,192,41031,1,8,0:0:0:0:
256,192,41355,1,4,0:0:0:0:
256,192,41518,1,4,0:0:0:0:
256,192,42004,1,12,0:0:0:0:
256,192,42328,1,0,0:0:0:0:
256,192,42653,1,8,0:0:0:0:
256,192,42815,1,0,0:0:0:0:
256,192,43139,1,4,0:0:0:0:
256,192,43463,1,0,0:0:0:0:
256,192,43626,1,8,0:0:0:0:
256,192,43788,1,0,0:0:0:0:
256,192,44112,1,0,0:0:0:0:
256,192,44274,1,8,0:0:0:0:
256,192,44436,1,0,0:0:0:0:
256,192,44599,1,12,0:0:0:0:
256,192,44761,1,0,0:0:0:0:
256,192,44923,1,8,0:0:0:0:
256,192,45085,1,8,0:0:0:0:
256,192,45409,1,0,0:0:0:0:
256,192,45572,1,8,0:0:0:0:
256,192,45734,1,0,0:0:0:0:
256,192,46058,1,0,0:0:0:0:
256,192,46220,1,8,0:0:0:0:
256,192,46382,1,0,0:0:0:0:
256,192,46463,1,0,0:0:0:0:
256,192,46545,1,0,0:0:0:0:
256,192,46707,1,0,0:0:0:0:
256,192,46869,1,8,0:0:0:0:
256,192,47193,1,12,0:0:0:0:
256,192,47518,1,0,0:0:0:0:
256,192,47842,1,0,0:0:0:0:
256,192,48004,1,8,0:0:0:0:
256,192,48328,1,4,0:0:0:0:
256,192,48653,1,0,0:0:0:0:
256,192,48815,1,8,0:0:0:0:
256,192,48977,1,8,0:0:0:0:
256,192,49301,1,0,0:0:0:0:
256,192,49463,1,8,0:0:0:0:
256,192,49626,1,0,0:0:0:0:
256,192,49788,1,12,0:0:0:0:
256,192,49950,1,0,0:0:0:0:
256,192,50112,1,8,0:0:0:0:
256,192,50274,1,8,0:0:0:0:
256,192,50599,1,0,0:0:0:0:
256,192,50761,1,8,0:0:0:0:
256,192,50923,1,0,0:0:0:0:
256,192,51247,1,0,0:0:0:0:
256,192,51409,1,8,0:0:0:0:
256,192,51572,1,8,0:0:0:0:
256,192,51653,1,8,0:0:0:0:
256,192,51734,1,8,0:0:0:0:
256,192,51896,1,0,0:0:0:0:
256,192,52058,1,8,0:0:0:0:
256,192,52382,1,4,0:0:0:0:
256,192,52707,1,0,0:0:0:0:
256,192,52869,1,0,0:0:0:0:
256,192,53031,1,8,0:0:0:0:
256,192,53193,1,0,0:0:0:0:
256,192,53518,1,0,0:0:0:0:
256,192,53680,1,8,0:0:0:0:
256,192,53842,1,0,0:0:0:0:
256,192,54004,1,8,0:0:0:0:
256,192,54166,1,0,0:0:0:0:
256,192,54247,1,0,0:0:0:0:
256,192,54328,1,0,0:0:0:0:
256,192,54490,1,0,0:0:0:0:
256,192,54653,1,8,0:0:0:0:
256,192,54977,1,4,0:0:0:0:
256,192,55301,1,8,0:0:0:0:
256,192,55463,1,0,0:0:0:0:
256,192,55626,1,8,0:0:0:0:
256,192,55788,1,0,0:0:0:0:
256,192,56112,1,0,0:0:0:0:
256,192,56274,1,8,0:0:0:0:
256,192,56436,1,0,0:0:0:0:
256,192,56599,1,8,0:0:0:0:
256,192,56761,1,8,0:0:0:0:
256,192,56842,1,8,0:0:0:0:
256,192,56923,1,8,0:0:0:0:
256,192,57085,1,0,0:0:0:0:
256,192,57247,1,8,0:0:0:0:
256,192,57572,1,4,0:0:0:0:
256,192,57896,1,0,0:0:0:0:
256,192,58058,1,0,0:0:0:0:
256,192,58220,1,8,0:0:0:0:
256,192,58382,1,0,0:0:0:0:
256,192,58707,1,0,0:0:0:0:
256,192,58869,1,8,0:0:0:0:
256,192,59031,1,0,0:0:0:0:
256,192,59193,1,8,0:0:0:0:
256,192,59355,1,0,0:0:0:0:
256,192,59436,1,0,0:0:0:0:
256,192,59518,1,0,0:0:0:0:
256,192,59680,1,0,0:0:0:0:
256,192,59842,1,8,0:0:0:0:
256,192,60166,1,4,0:0:0:0:
256,192,60490,1,8,0:0:0:0:
256,192,60815,1,0,0:0:0:0:
256,192,60977,1,8,0:0:0:0:
256,192,61139,1,0,0:0:0:0:
256,192,61301,1,12,0:0:0:0:
256,192,61626,1,0,0:0:0:0:
256,192,61788,1,8,0:0:0:0:
256,192,61950,1,8,0:0:0:0:
256,192,62112,1,0,0:0:0:0:
256,192,62193,1,0,0:0:0:0:
256,192,62274,1,0,0:0:0:0:
256,192,62436,1,8,0:0:0:0:
256,192,62761,1,4,0:0:0:0:
256,192,63085,1,8,0:0:0:0:
256,192,63247,1,0,0:0:0:0:
256,192,63328,1,0,0:0:0:0:
256,192,63409,1,0,0:0:0:0:
256,192,63572,1,0,0:0:0:0:
256,192,63734,1,8,0:0:0:0:
256,192,64058,1,8,0:0:0:0:
256,192,64382,1,8,0:0:0:0:
256,192,64545,1,8,0:0:0:0:
256,192,64707,1,0,0:0:0:0:
256,192,64869,1,0,0:0:0:0:
256,192,65031,1,8,0:0:0:0:
256,192,65193,1,8,0:0:0:0:
256,192,65355,1,4,0:0:0:0:
256,192,65680,1,8,0:0:0:0:
256,192,65842,1,0,0:0:0:0:
256,192,65923,1,0,0:0:0:0:
256,192,66004,1,0,0:0:0:0:
256,192,66166,1,0,0:0:0:0:
256,192,66328,1,8,0:0:0:0:
256,192,66653,1,8,0:0:0:0:
256,192,66977,1,8,0:0:0:0:
256,192,67139,1,0,0:0:0:0:
256,192,67301,1,8,0:0:0:0:
256,192,67463,1,0,0:0:0:0:
256,192,67626,1,8,0:0:0:0:
256,192,67707,1,8,0:0:0:0:
256,192,67788,1,8,0:0:0:0:
256,192,67950,1,4,0:0:0:0:
256,192,68274,1,8,0:0:0:0:
256,192,68436,1,0,0:0:0:0:
256,192,68518,1,0,0:0:0:0:
256,192,68599,1,0,0:0:0:0:
256,192,68761,1,0,0:0:0:0:
256,192,68923,1,8,0:0:0:0:
256,192,69247,1,8,0:0:0:0:
256,192,69572,1,8,0:0:0:0:
256,192,69734,1,8,0:0:0:0:
256,192,69896,1,0,0:0:0:0:
256,192,70058,1,0,0:0:0:0:
256,192,70220,1,8,0:0:0:0:
256,192,70382,1,8,0:0:0:0:
256,192,70545,1,4,0:0:0:0:
256,192,70869,1,8,0:0:0:0:
256,192,71031,1,0,0:0:0:0:
256,192,71112,1,0,0:0:0:0:
256,192,71193,1,0,0:0:0:0:
256,192,71355,1,0,0:0:0:0:
256,192,71518,1,8,0:0:0:0:
256,192,71842,1,8,0:0:0:0:
256,192,72004,1,0,0:0:0:0:
256,192,72166,1,8,0:0:0:0:
256,192,72328,1,8,0:0:0:0:
256,192,72490,1,0,0:0:0:0:
256,192,72572,1,0,0:0:0:0:
256,192,72653,1,0,0:0:0:0:
256,192,72815,1,8,0:0:0:0:
256,192,72896,1,8,0:0:0:0:
256,192,72977,1,8,0:0:0:0:
256,192,73139,1,4,0:0:0:0:
256,192,73788,1,0,0:0:0:0:
256,192,74112,1,8,0:0:0:0:
256,192,74274,1,8,0:0:0:0:
256,192,74436,1,0,0:0:0:0:
256,192,74761,1,8,0:0:0:0:
256,192,75085,1,0,0:0:0:0:
256,192,75409,1,8,0:0:0:0:
256,192,75572,1,0,0:0:0:0:
256,192,75734,1,12,0:0:0:0:
256,192,76058,1,0,0:0:0:0:
256,192,76220,1,8,0:0:0:0:
256,192,76382,1,8,0:0:0:0:
256,192,76707,1,0,0:0:0:0:
256,192,77031,1,8,0:0:0:0:
256,192,77193,1,0,0:0:0:0:
256,192,77355,1,8,0:0:0:0:
256,192,77436,1,8,0:0:0:0:
256,192,77518,1,8,0:0:0:0:
256,192,77680,1,0,0:0:0:0:
256,192,77842,1,8,0:0:0:0:
256,192,78004,1,0,0:0:0:0:
256,192,78085,1,0,0:0:0:0:
256,192,78166,1,0,0:0:0:0:
256,192,78328,1,12,0:0:0:0:
256,192,78977,1,8,0:0:0:0:
256,192,79301,1,8,0:0:0:0:
256,192,79463,1,0,0:0:0:0:
256,192,79626,1,8,0:0:0:0:
256,192,79950,1,0,0:0:0:0:
256,192,80112,1,8,0:0:0:0:
256,192,80274,1,0,0:0:0:0:
256,192,80599,1,8,0:0:0:0:
256,192,80923,1,4,0:0:0:0:
256,192,81247,1,8,0:0:0:0:
256,192,81409,1,0,0:0:0:0:
256,192,81572,1,8,0:0:0:0:
256,192,81896,1,0,0:0:0:0:
256,192,82058,1,8,0:0:0:0:
256,192,82220,1,8,0:0:0:0:
256,192,82545,1,8,0:0:0:0:
256,192,82707,1,8,0:0:0:0:
256,192,82869,1,0,0:0:0:0:
256,192,82950,1,0,0:0:0:0:
256,192,83031,1,0,0:0:0:0:
256,192,83193,1,8,0:0:0:0:
256,192,83274,1,8,0:0:0:0:
256,192,83355,1,8,0:0:0:0:
256,192,83518,1,4,0:0:0:0:
256,192,83842,1,8,0:0:0:0:
256,192,84004,1,0,0:0:0:0:
256,192,84166,1,8,0:0:0:0:
256,192,84328,1,8,0:0:0:0:
256,192,84490,1,0,0:0:0:0:
256,192,84653,1,8,0:0:0:0:
256,192,84815,1,0,0:0:0:0:
256,192,85139,1,8,0:0:0:0:
256,192,85301,1,8,0:0:0:0:
256,192,85382,1,8,0:0:0:0:
256,192,85463,1,8,0:0:0:0:
256,192,85626,1,0,0:0:0:0:
256,192,85788,1,8,0:0:0:0:
256,192,85950,1,8,0:0:0:0:
256,192,86112,1,4,0:0:0:0:
256,192,86436,1,8,0:0:0:0:
256,192,86599,1,0,0:0:0:0:
256,192,86680,1,0,0:0:0:0:
256,192,86761,1,0,0:0:0:0:
256,192,86923,1,0,0:0:0:0:
256,192,87085,1,8,0:0:0:0:
256,192,87409,1,4,0:0:0:0:
256,192,87734,1,8,0:0:0:0:
256,192,87896,1,8,0:0:0:0:
256,192,88058,1,0,0:0:0:0:
256,192,88220,1,0,0:0:0:0:
256,192,88382,1,8,0:0:0:0:
256,192,88463,1,8,0:0:0:0:
256,192,88545,1,8,0:0:0:0:
256,192,88707,1,4,0:0:0:0:
256,192,89031,1,8,0:0:0:0:
256,192,89193,1,0,0:0:0:0:
256,192,89355,1,8,0:0:0:0:
256,192,89518,1,8,0:0:0:0:
256,192,89680,1,0,0:0:0:0:
256,192,89842,1,8,0:0:0:0:
256,192,90004,1,0,0:0:0:0:
256,192,90328,1,8,0:0:0:0:
256,192,90490,1,8,0:0:0:0:
256,192,90572,1,8,0:0:0:0:
256,192,90653,1,8,0:0:0:0:
256,192,90815,1,0,0:0:0:0:
256,192,90977,1,8,0:0:0:0:
256,192,91139,1,8,0:0:0:0:
256,192,91301,1,4,0:0:0:0:
256,192,91626,1,8,0:0:0:0:
256,192,91788,1,0,0:0:0:0:
256,192,91950,1,8,0:0:0:0:
256,192,92031,1,8,0:0:0:0:
256,192,92112,1,8,0:0:0:0:
256,192,92274,1,8,0:0:0:0:
256,192,92436,1,0,0:0:0:0:
256,192,92518,1,0,0:0:0:0:
256,192,92599,1,0,0:0:0:0:
256,192,92761,1,0,0:0:0:0:
256,192,92923,1,8,0:0:0:0:
256,192,93085,1,0,0:0:0:0:
256,192,93247,1,4,0:0:0:0:
256,192,93409,1,4,0:0:0:0:
256,192,93896,1,12,0:0:0:0:
256,192,94220,1,0,0:0:0:0:
256,192,94545,1,8,0:0:0:0:
256,192,94707,1,0,0:0:0:0:
256,192,94869,1,8,0:0:0:0:
256,192,95031,1,4,0:0:0:0:
256,192,95355,1,0,0:0:0:0:
256,192,95518,1,8,0:0:0:0:
256,192,95680,1,0,0:0:0:0:
256,192,96004,1,0,0:0:0:0:
256,192,96166,1,8,0:0:0:0:
256,192,96328,1,0,0:0:0:0:
256,192,96490,1,12,0:0:0:0:
256,192,96653,1,0,0:0:0:0:
256,192,96815,1,8,0:0:0:0:
256,192,96977,1,8,0:0:0:0:
256,192,97301,1,0,0:0:0:0:
256,192,97463,1,8,0:0:0:0:
256,192,97626,1,0,0:0:0:0:
256,192,97950,1,0,0:0:0:0:
256,192,98112,1,8,0:0:0:0:
256,192,98274,1,0,0:0:0:0:
256,192,98355,1,0,0:0:0:0:
256,192,98436,1,0,0:0:0:0:
256,192,98599,1,0,0:0:0:0:
256,192,98761,1,8,0:0:0:0:
256,192,99085,1,12,0:0:0:0:
256,192,99409,1,0,0:0:0:0:
256,192,99734,1,0,0:0:0:0:
256,192,99896,1,8,0:0:0:0:
256,192,100058,1,8,0:0:0:0:
256,192,100220,1,4,0:0:0:0:
256,192,100545,1,0,0:0:0:0:
256,192,100707,1,8,0:0:0:0:
256,192,100869,1,8,0:0:0:0:
256,192,101193,1,0,0:0:0:0:
256,192,101355,1,8,0:0:0:0:
256,192,101518,1,0,0:0:0:0:
256,192,101680,1,12,0:0:0:0:
256,192,101842,1,0,0:0:0:0:
256,192,102004,1,8,0:0:0:0:
256,192,102166,1,8,0:0:0:0:
256,192,102490,1,0,0:0:0:0:
256,192,102653,1,8,0:0:0:0:
256,192,102815,1,0,0:0:0:0:
256,192,103139,1,0,0:0:0:0:
256,192,103301,1,8,0:0:0:0:
256,192,103463,1,8,0:0:0:0:
256,192,103545,1,8,0:0:0:0:
256,192,103626,1,8,0:0:0:0:
256,192,103788,1,0,0:0:0:0:
256,192,103950,1,8,0:0:0:0:
256,192,104274,1,4,0:0:0:0:
256,192,104436,1,8,0:0:0:0:
256,192,104599,1,0,0:0:0:0:
256,192,104761,1,0,0:0:0:0:
256,192,104923,1,8,0:0:0:0:
256,192,105085,1,8,0:0:0:0:
256,192,105409,1,0,0:0:0:0:
256,192,105572,1,8,0:0:0:0:
256,192,105734,1,0,0:0:0:0:
256,192,105896,1,8,0:0:0:0:
256,192,106058,1,0,0:0:0:0:
256,192,106139,1,0,0:0:0:0:
256,192,106220,1,0,0:0:0:0:
256,192,106382,1,0,0:0:0:0:
256,192,106545,1,8,0:0:0:0:
256,192,106869,1,4,0:0:0:0:
256,192,107031,1,8,0:0:0:0:
256,192,107193,1,8,0:0:0:0:
256,192,107355,1,0,0:0:0:0:
256,192,107518,1,8,0:0:0:0:
256,192,107680,1,0,0:0:0:0:
256,192,108004,1,0,0:0:0:0:
256,192,108166,1,8,0:0:0:0:
256,192,108328,1,0,0:0:0:0:
256,192,108490,1,8,0:0:0:0:
256,192,108653,1,8,0:0:0:0:
256,192,108734,1,8,0:0:0:0:
256,192,108815,1,8,0:0:0:0:
256,192,108977,1,0,0:0:0:0:
256,192,109139,1,8,0:0:0:0:
256,192,109463,1,4,0:0:0:0:
256,192,109626,1,8,0:0:0:0:
256,192,109788,1,0,0:0:0:0:
256,192,109950,1,0,0:0:0:0:
256,192,110112,1,8,0:0:0:0:
256,192,110274,1,8,0:0:0:0:
256,192,110599,1,0,0:0:0:0:
256,192,110761,1,8,0:0:0:0:
256,192,110923,1,0,0:0:0:0:
256,192,111085,1,8,0:0:0:0:
256,192,111247,1,0,0:0:0:0:
256,192,111328,1,0,0:0:0:0:
256,192,111409,1,0,0:0:0:0:
256,192,111572,1,0,0:0:0:0:
256,192,111734,1,8,0:0:0:0:
256,192,112058,1,4,0:0:0:0:
256,192,112382,1,8,0:0:0:0:
256,192,112707,1,0,0:0:0:0:
256,192,112869,1,8,0:0:0:0:
256,192,113031,1,0,0:0:0:0:
256,192,113193,1,12,0:0:0:0:
256,192,113518,1,0,0:0:0:0:
256,192,113680,1,8,0:0:0:0:
256,192,113842,1,8,0:0:0:0:
256,192,114004,1,0,0:0:0:0:
256,192,114085,1,0,0:0:0:0:
256,192,114166,1,0,0:0:0:0:
256,192,114328,1,8,0:0:0:0:
256,192,114653,1,4,0:0:0:0:
256,192,114977,1,8,0:0:0:0:
256,192,115139,1,0,0:0:0:0:
256,192,115220,1,0,0:0:0:0:
256,192,115301,1,0,0:0:0:0:
256,192,115463,1,0,0:0:0:0:
256,192,115626,1,8,0:0:0:0:
256,192,115950,1,8,0:0:0:0:
256,192,116112,1,0,0:0:0:0:
256,192,116274,1,8,0:0:0:0:
256,192,116436,1,8,0:0:0:0:
256,192,116518,1,8,0:0:0:0:
256,192,116599,1,8,0:0:0:0:
256,192,116761,1,0,0:0:0:0:
256,192,116923,1,8,0:0:0:0:
256,192,117085,1,8,0:0:0:0:
256,192,117247,1,4,0:0:0:0:
256,192,117572,1,8,0:0:0:0:
256,192,117734,1,0,0:0:0:0:
256,192,117815,1,0,0:0:0:0:
256,192,117896,1,0,0:0:0:0:
256,192,118058,1,0,0:0:0:0:
256,192,118220,1,8,0:0:0:0:
256,192,118545,1,8,0:0:0:0:
256,192,118707,1,0,0:0:0:0:
256,192,118869,1,8,0:0:0:0:
256,192,119031,1,0,0:0:0:0:
256,192,119112,1,0,0:0:0:0:
256,192,119193,1,0,0:0:0:0:
256,192,119355,1,0,0:0:0:0:
256,192,119518,1,8,0:0:0:0:
256,192,119599,1,8,0:0:0:0:
256,192,119680,1,8,0:0:0:0:
256,192,119842,1,4,0:0:0:0:
256,192,120166,1,8,0:0:0:0:
256,192,120328,1,0,0:0:0:0:
256,192,120409,1,0,0:0:0:0:
256,192,120490,1,0,0:0:0:0:
256,192,120653,1,0,0:0:0:0:
256,192,120815,1,8,0:0:0:0:
256,192,121139,1,8,0:0:0:0:
256,192,121301,1,0,0:0:0:0:
256,192,121463,1,8,0:0:0:0:
256,192,121626,1,8,0:0:0:0:
256,192,121707,1,8,0:0:0:0:
256,192,121788,1,8,0:0:0:0:
256,192,121950,1,0,0:0:0:0:
256,192,122112,1,8,0:0:0:0:
256,192,122274,1,8,0:0:0:0:
256,192,122436,1,4,0:0:0:0:
256,192,122761,1,8,0:0:0:0:
256,192,122923,1,0,0:0:0:0:
256,192,123004,1,0,0:0:0:0:
256,192,123085,1,0,0:0:0:0:
256,192,123247,1,0,0:0:0:0:
256,192,123409,1,8,0:0:0:0:
256,192,123734,1,8,0:0:0:0:
256,192,123896,1,0,0:0:0:0:
256,192,124058,1,8,0:0:0:0:
256,192,124220,1,8,0:0:0:0:
256,192,124382,1,0,0:0:0:0:
256,192,124463,1,0,0:0:0:0:
256,192,124545,1,0,0:0:0:0:
256,192,124707,1,8,0:0:0:0:
256,192,124788,1,8,0:0:0:0:
256,192,124869,1,8,0:0:0:0:
256,192,125031,1,4,0:0:0:0:
256,192,125680,1,0,0:0:0:0:
256,192,126004,1,8,0:0:0:0:
256,192,126166,1,8,0:0:0:0:
256,192,126328,1,0,0:0:0:0:
256,192,126653,1,8,0:0:0:0:
256,192,126977,1,0,0:0:0:0:
256,192,127139,1,8,0:0:0:0:
256,192,127463,1,8,0:0:0:0:
256,192,127626,1,0,0:0:0:0:
256,192,127950,1,8,0:0:0:0:
256,192,128274,1,0,0:0:0:0:
256,192,128436,1,0,0:0:0:0:
256,192,128599,1,8,0:0:0:0:
256,192,128923,1,0,0:0:0:0:
256,192,129247,1,8,0:0:0:0:
256,192,129572,1,0,0:0:0:0:
256,192,129734,1,8,0:0:0:0:
256,192,129896,1,0,0:0:0:0:
256,192,130220,1,12,0:0:0:0:
256,192,130869,1,0,0:0:0:0:
256,192,131193,1,8,0:0:0:0:
256,192,131355,1,8,0:0:0:0:
256,192,131518,1,0,0:0:0:0:
256,192,131842,1,8,0:0:0:0:
256,192,132166,1,0,0:0:0:0:
256,192,132328,1,0,0:0:0:0:
256,192,132490,1,8,0:0:0:0:
256,192,132653,1,8,0:0:0:0:
256,192,132815,1,4,0:0:0:0:
256,192,133139,1,8,0:0:0:0:
256,192,133463,1,0,0:0:0:0:
256,192,133788,1,8,0:0:0:0:
256,192,133950,1,0,0:0:0:0:
256,192,134112,1,8,0:0:0:0:
256,192,134436,1,0,0:0:0:0:
256,192,134599,1,0,0:0:0:0:
256,192,134761,1,8,0:0:0:0:
256,192,134842,1,8,0:0:0:0:
256,192,134923,1,8,0:0:0:0:
256,192,135085,1,0,0:0:0:0:
256,192,135166,1,0,0:0:0:0:
256,192,135247,1,0,0:0:0:0:
256,192,135409,1,12,0:0:0:0:
256,192,135734,1,8,0:0:0:0:
256,192,135896,1,0,0:0:0:0:
256,192,136058,1,8,0:0:0:0:
256,192,136382,1,0,0:0:0:0:
256,192,136545,1,8,0:0:0:0:
256,192,136707,1,0,0:0:0:0:
256,192,136869,1,0,0:0:0:0:
256,192,137031,1,8,0:0:0:0:
256,192,137193,1,8,0:0:0:0:
256,192,137274,1,8,0:0:0:0:
256,192,137355,1,8,0:0:0:0:
256,192,137518,1,0,0:0:0:0:
256,192,137680,1,8,0:0:0:0:
256,192,137842,1,8,0:0:0:0:
256,192,138004,1,4,0:0:0:0:
256,192,138328,1,8,0:0:0:0:
256,192,138490,1,0,0:0:0:0:
256,192,138653,1,0,0:0:0:0:
256,192,138734,1,0,0:0:0:0:
256,192,138815,1,0,0:0:0:0:
256,192,138977,1,8,0:0:0:0:
256,192,139139,1,0,0:0:0:0:
256,192,139301,1,4,0:0:0:0:
256,192,139626,1,8,0:0:0:0:
256,192,139788,1,8,0:0:0:0:
256,192,139950,1,0,0:0:0:0:
256,192,140112,1,0,0:0:0:0:
256,192,140274,1,8,0:0:0:0:
256,192,140355,1,8,0:0:0:0:
256,192,140436,1,8,0:0:0:0:
256,192,140599,1,4,0:0:0:0:
256,192,140923,1,8,0:0:0:0:
256,192,141085,1,0,0:0:0:0:
256,192,141247,1,8,0:0:0:0:
256,192,141572,1,0,0:0:0:0:
256,192,141734,1,8,0:0:0:0:
256,192,141896,1,0,0:0:0:0:
256,192,142058,1,0,0:0:0:0:
256,192,142220,1,8,0:0:0:0:
256,192,142382,1,8,0:0:0:0:
256,192,142463,1,8,0:0:0:0:
256,192,142545,1,8,0:0:0:0:
256,192,142707,1,0,0:0:0:0:
256,192,142869,1,8,0:0:0:0:
256,192,143031,1,8,0:0:0:0:
256,192,143193,1,4,0:0:0:0:
256,192,143518,1,8,0:0:0:0:
256,192,143680,1,0,0:0:0:0:
256,192,143842,1,8,0:0:0:0:
256,192,143923,1,8,0:0:0:0:
256,192,144004,1,8,0:0:0:0:
256,192,144166,1,8,0:0:0:0:
256,192,144328,1,0,0:0:0:0:
256,192,144409,1,0,0:0:0:0:
256,192,144490,1,0,0:0:0:0:
256,192,144572,1,0,0:0:0:0:
256,192,144653,1,0,0:0:0:0:
256,192,144815,1,8,0:0:0:0:
256,192,144977,1,0,0:0:0:0:
256,192,145139,1,4,0:0:0:0:
256,192,145301,1,4,0:0:0:0:
256,192,145788,1,12,0:0:0:0:
256,192,146112,1,0,0:0:0:0:
256,192,146436,1,8,0:0:0:0:
256,192,146599,1,0,0:0:0:0:
256,192,146761,1,8,0:0:0:0:
256,192,146923,1,4,0:0:0:0:
256,192,147247,1,0,0:0:0:0:
256,192,147409,1,8,0:0:0:0:
256,192,147572,1,0,0:0:0:0:
256,192,147653,1,0,0:0:0:0:
256,192,147734,1,0,0:0:0:0:
256,192,147896,1,0,0:0:0:0:
256,192,148058,1,8,0:0:0:0:
256,192,148382,1,12,0:0:0:0:
256,192,148545,1,0,0:0:0:0:
256,192,148707,1,8,0:0:0:0:
256,192,148869,1,8,0:0:0:0:
256,192,149031,1,0,0:0:0:0:
256,192,149193,1,0,0:0:0:0:
256,192,149355,1,8,0:0:0:0:
256,192,149518,1,4,0:0:0:0:
256,192,149842,1,0,0:0:0:0:
256,192,150004,1,8,0:0:0:0:
256,192,150166,1,0,0:0:0:0:
256,192,150247,1,0,0:0:0:0:
256,192,150328,1,0,0:0:0:0:
256,192,150490,1,0,0:0:0:0:
256,192,150653,1,8,0:0:0:0:
256,192,150977,1,12,0:0:0:0:
256,192,151301,1,0,0:0:0:0:
256,192,151626,1,0,0:0:0:0:
256,192,151788,1,8,0:0:0:0:
256,192,151950,1,8,0:0:0:0:
256,192,152112,1,4,0:0:0:0:
256,192,152436,1,0,0:0:0:0:
256,192,152599,1,8,0:0:0:0:
256,192,152761,1,8,0:0:0:0:
256,192,152842,1,8,0:0:0:0:
256,192,152923,1,8,0:0:0:0:
256,192,153085,1,0,0:0:0:0:
256,192,153247,1,8,0:0:0:0:
256,192,153572,1,12,0:0:0:0:
256,192,153734,1,0,0:0:0:0:
256,192,153896,1,8,0:0:0:0:
256,192,154058,1,8,0:0:0:0:
256,192,154220,1,0,0:0:0:0:
256,192,154382,1,0,0:0:0:0:
256,192,154545,1,8,0:0:0:0:
256,192,154707,1,4,0:0:0:0:
256,192,155031,1,0,0:0:0:0:
256,192,155193,1,8,0:0:0:0:
256,192,155355,1,8,0:0:0:0:
256,192,155436,1,8,0:0:0:0:
256,192,155518,1,8,0:0:0:0:
256,192,155680,1,0,0:0:0:0:
256,192,155842,1,8,0:0:0:0:
256,192,156166,1,4,0:0:0:0:
256,192,156328,1,8,0:0:0:0:
256,192,156490,1,0,0:0:0:0:
256,192,156653,1,0,0:0:0:0:
256,192,156815,1,8,0:0:0:0:
256,192,156977,1,0,0:0:0:0:
256,192,157301,1,0,0:0:0:0:
256,192,157463,1,8,0:0:0:0:
256,192,157626,1,0,0:0:0:0:
256,192,157788,1,8,0:0:0:0:
256,192,157950,1,0,0:0:0:0:
256,192,158031,1,0,0:0:0:0:
256,192,158112,1,0,0:0:0:0:
256,192,158274,1,0,0:0:0:0:
256,192,158436,1,8,0:0:0:0:
256,192,158761,1,4,0:0:0:0:
256,192,158923,1,8,0:0:0:0:
256,192,159085,1,8,0:0:0:0:
256,192,159247,1,0,0:0:0:0:
256,192,159409,1,8,0:0:0:0:
256,192,159572,1,0,0:0:0:0:
256,192,159896,1,0,0:0:0:0:
256,192,160058,1,8,0:0:0:0:
256,192,160220,1,0,0:0:0:0:
256,192,160382,1,8,0:0:0:0:
256,192,160545,1,8,0:0:0:0:
256,192,160626,1,8,0:0:0:0:
256,192,160707,1,8,0:0:0:0:
256,192,160869,1,0,0:0:0:0:
256,192,161031,1,8,0:0:0:0:
256,192,161355,1,4,0:0:0:0:
256,192,161518,1,8,0:0:0:0:
256,192,161680,1,0,0:0:0:0:
256,192,161842,1,0,0:0:0:0:
256,192,162004,1,8,0:0:0:0:
256,192,162166,1,0,0:0:0:0:
256,192,162490,1,0,0:0:0:0:
256,192,162653,1,8,0:0:0:0:
256,192,162815,1,0,0:0:0:0:
256,192,162977,1,8,0:0:0:0:
256,192,163139,1,0,0:0:0:0:
256,192,163220,1,0,0:0:0:0:
256,192,163301,1,0,0:0:0:0:
256,192,163463,1,0,0:0:0:0:
256,192,163626,1,8,0:0:0:0:
256,192,163950,1,4,0:0:0:0:
256,192,164274,1,8,0:0:0:0:
256,192,164436,1,0,0:0:0:0:
256,192,164518,1,0,0:0:0:0:
256,192,164599,1,0,0:0:0:0:
256,192,164761,1,8,0:0:0:0:
256,192,164923,1,0,0:0:0:0:
256,192,165085,1,12,0:0:0:0:
256,192,165409,1,0,0:0:0:0:
256,192,165572,1,8,0:0:0:0:
256,192,165653,1,8,0:0:0:0:
256,192,165734,1,8,0:0:0:0:
256,192,165896,1,0,0:0:0:0:
256,192,165977,1,0,0:0:0:0:
256,192,166058,1,0,0:0:0:0:
256,192,166220,1,12,0:0:0:0:
256,192,166382,12,0,167355,0:0:0:0:
256,192,167518,5,8,0:0:0:0:
256,192,167842,1,4,0:0:0:0:
256,192,168166,1,8,0:0:0:0:
256,192,168328,1,0,0:0:0:0:
256,192,168409,1,0,0:0:0:0:
256,192,168490,1,0,0:0:0:0:
256,192,168653,1,0,0:0:0:0:
256,192,168815,1,8,0:0:0:0:
256,192,169139,1,8,0:0:0:0:
256,192,169301,1,0,0:0:0:0:
256,192,169463,1,8,0:0:0:0:
256,192,169626,1,8,0:0:0:0:
256,192,169707,1,8,0:0:0:0:
256,192,169788,1,8,0:0:0:0:
256,192,169950,1,0,0:0:0:0:
256,192,170112,1,8,0:0:0:0:
256,192,170436,1,4,0:0:0:0:
256,192,170761,1,8,0:0:0:0:
256,192,170923,1,0,0:0:0:0:
256,192,171004,1,0,0:0:0:0:
256,192,171085,1,0,0:0:0:0:
256,192,171247,1,0,0:0:0:0:
256,192,171409,1,8,0:0:0:0:
256,192,171734,1,8,0:0:0:0:
256,192,171896,1,0,0:0:0:0:
256,192,172058,1,8,0:0:0:0:
256,192,172220,1,0,0:0:0:0:
256,192,172301,1,0,0:0:0:0:
256,192,172382,1,0,0:0:0:0:
256,192,172545,1,0,0:0:0:0:
256,192,172707,1,8,0:0:0:0:
256,192,172788,1,8,0:0:0:0:
256,192,172869,1,8,0:0:0:0:
256,192,173031,1,4,0:0:0:0:
256,192,173355,1,8,0:0:0:0:
256,192,173518,1,0,0:0:0:0:
256,192,173599,1,0,0:0:0:0:
256,192,173680,1,0,0:0:0:0:
256,192,173842,1,0,0:0:0:0:
256,192,174004,1,8,0:0:0:0:
256,192,174328,1,8,0:0:0:0:
256,192,174490,1,0,0:0:0:0:
256,192,174653,1,8,0:0:0:0:
256,192,174815,1,8,0:0:0:0:
256,192,174896,1,8,0:0:0:0:
256,192,174977,1,8,0:0:0:0:
256,192,175139,1,0,0:0:0:0:
256,192,175301,1,8,0:0:0:0:
256,192,175626,1,4,0:0:0:0:
256,192,175950,1,8,0:0:0:0:
256,192,176112,1,0,0:0:0:0:
256,192,176193,1,0,0:0:0:0:
256,192,176274,1,0,0:0:0:0:
256,192,176436,1,0,0:0:0:0:
256,192,176599,1,8,0:0:0:0:
256,192,176923,1,8,0:0:0:0:
256,192,177085,1,0,0:0:0:0:
256,192,177247,1,8,0:0:0:0:
256,192,177409,1,8,0:0:0:0:
256,192,177572,1,0,0:0:0:0:
256,192,177653,1,0,0:0:0:0:
256,192,177734,1,0,0:0:0:0:
256,192,177896,1,8,0:0:0:0:
256,192,177977,1,8,0:0:0:0:
256,192,178058,1,8,0:0:0:0:
256,192,178220,1,4,0:0:0:0:
256,192,178545,1,8,0:0:0:0:
256,192,178707,1,0,0:0:0:0:
256,192,178788,1,0,0:0:0:0:
256,192,178869,1,0,0:0:0:0:
256,192,179031,1,0,0:0:0:0:
256,192,179193,1,8,0:0:0:0:
256,192,179355,1,0,0:0:0:0:
256,192,179518,1,12,0:0:0:0:
256,192,179842,1,8,0:0:0:0:
256,192,180004,1,8,0:0:0:0:
256,192,180085,1,8,0:0:0:0:
256,192,180166,1,8,0:0:0:0:
256,192,180328,1,0,0:0:0:0:
256,192,180490,1,8,0:0:0:0:
256,192,180653,1,8,0:0:0:0:
256,192,180815,1,4,0:0:0:0:
256,192,181139,1,8,0:0:0:0:
256,192,181301,1,0,0:0:0:0:
256,192,181382,1,0,0:0:0:0:
256,192,181463,1,0,0:0:0:0:
256,192,181626,1,0,0:0:0:0:
256,192,181788,1,8,0:0:0:0:
256,192,181950,1,0,0:0:0:0:
256,192,182112,1,12,0:0:0:0:
256,192,182436,1,8,0:0:0:0:
256,192,182599,1,0,0:0:0:0:
256,192,182680,1,0,0:0:0:0:
256,192,182761,1,0,0:0:0:0:
256,192,182923,1,8,0:0:0:0:
256,192,183004,1,8,0:0:0:0:
256,192,183085,1,8,0:0:0:0:
256,192,183166,1,8,0:0:0:0:
256,192,183247,1,8,0:0:0:0:
256,192,183409,1,4,0:0:0:0:
256,192,183734,1,8,0:0:0:0:
256,192,183896,1,0,0:0:0:0:
256,192,183977,1,0,0:0:0:0:
256,192,184058,1,0,0:0:0:0:
256,192,184220,1,0,0:0:0:0:
256,192,184382,1,8,0:0:0:0:
256,192,184545,1,0,0:0:0:0:
256,192,184707,1,12,0:0:0:0:
256,192,185031,1,8,0:0:0:0:
256,192,185193,1,8,0:0:0:0:
256,192,185274,1,8,0:0:0:0:
256,192,185355,1,8,0:0:0:0:
256,192,185518,1,0,0:0:0:0:
256,192,185680,1,8,0:0:0:0:
256,192,185842,1,8,0:0:0:0:
256,192,186004,1,4,0:0:0:0:
256,192,186328,1,8,0:0:0:0:
256,192,186490,1,0,0:0:0:0:
256,192,186572,1,0,0:0:0:0:
256,192,186653,1,0,0:0:0:0:
256,192,186815,1,0,0:0:0:0:
256,192,186977,1,8,0:0:0:0:
256,192,187139,1,0,0:0:0:0:
256,192,187301,1,12,0:0:0:0:
256,192,187626,1,8,0:0:0:0:
256,192,187788,1,8,0:0:0:0:
256,192,187950,1,0,0:0:0:0:
256,192,188031,1,0,0:0:0:0:
256,192,188112,1,0,0:0:0:0:
256,192,188274,1,8,0:0:0:0:
256,192,188355,1,8,0:0:0:0:
256,192,188436,1,8,0:0:0:0:
256,192,188599,1,4,0:0:0:0:
256,192,188923,1,8,0:0:0:0:
256,192,189085,1,8,0:0:0:0:
256,192,189247,1,0,0:0:0:0:
256,192,189572,1,8,0:0:0:0:
256,192,189734,1,0,0:0:0:0:
256,192,189896,1,0,0:0:0:0:
256,192,190058,1,8,0:0:0:0:
256,192,190220,1,0,0:0:0:0:
256,192,190382,1,12,0:0:0:0:
256,192,190545,12,0,198328,0:0:0:0:
